<?xml version="1.0" standalone="no"?>
<!DOCTYPE svg PUBLIC "-//W3C//DTD SVG 1.1//EN" "http://www.w3.org/Graphics/SVG/1.1/DTD/svg11.dtd" >
<svg xmlns="http://www.w3.org/2000/svg" xmlns:xlink="http://www.w3.org/1999/xlink" version="1.1">
<metadata>
Created by FontForge 20170731 at Mon Jan 25 16:48:34 2021
 By Aleksey,,,
Copyright (c) 2021 by Philippe Van Lieu (Nick15). All rights reserved.
</metadata>
<defs>
<font id="Essentiarum" horiz-adv-x="695" >
  <font-face 
    font-family="Essentiarum"
    font-weight="400"
    font-stretch="normal"
    units-per-em="600"
    panose-1="0 0 0 0 0 0 0 0 0 0"
    ascent="450"
    descent="-150"
    x-height="199"
    cap-height="462"
    bbox="0 -120 695 575"
    underline-thickness="50"
    underline-position="-150"
    unicode-range="U+000D-007A"
  />
<missing-glyph horiz-adv-x="500" 
 />
    <glyph glyph-name=".notdef" horiz-adv-x="500" 
 />
    <glyph glyph-name=".null" horiz-adv-x="0" 
 />
    <glyph glyph-name="nonmarkingreturn" unicode="&#xd;" horiz-adv-x="500" 
 />
    <glyph glyph-name="NULL" horiz-adv-x="0" 
 />
    <glyph glyph-name="NULL" horiz-adv-x="0" 
 />
    <glyph glyph-name="space" unicode=" " horiz-adv-x="139" 
 />
    <glyph glyph-name="two" unicode="2" 
d="M473 440q16 3 24 4q7 1 7.5 -1.5t-15.5 -11.5q-17 -9 -39.5 -24t-42.5 -32t-34 -36.5t-14 -37.5t11 -30t27.5 -22t36 -20t36 -24t27.5 -34t11 -51q0 -27 -13 -52.5t-36.5 -44.5t-56.5 -30.5t-73 -11.5t-76 14.5t-63.5 40.5t-43.5 61.5t-16 78.5q0 41 14.5 74t38.5 59.5
t55 46t63 34.5q76 33 172 50zM302 72q-8 3 -18 6t-20 3.5t-18.5 -2t-11.5 -9.5q-8 -14 3.5 -25t27.5 -22q7 -5 18.5 -9.5t23.5 -6.5t22.5 -0.5t17.5 8.5t4 15.5t-11.5 16.5t-19 14.5t-18.5 10.5z" />
    <glyph glyph-name="A" unicode="A" horiz-adv-x="694" 
d="M347 494l262 -185l-100 -301h-324l-100 301l262 185v0z" />
    <glyph glyph-name="B" unicode="B" 
d="M379 483q19 0 24.5 -0.5t4 -3.5t-6.5 -8.5t-7.5 -15.5t1 -25.5t19.5 -36.5q16 -22 40 -42.5t46 -45t37.5 -56.5t15.5 -77q0 -42 -16 -78.5t-44 -63.5t-65 -42.5t-80 -15.5q-42 0 -79.5 15.5t-65.5 42.5t-44 63.5t-16 78.5q0 33 10.5 63t24 52.5t27.5 35.5t20 13
q5 -1 3.5 -16t1 -33t13 -32.5t40.5 -14.5q24 0 34 22t6 46q-2 12 -10 25t-14.5 28t-9.5 30.5t5 31.5q7 15 19 26t25 18.5t24.5 11.5t16.5 4zM348 182q-38 0 -63.5 -25t-25.5 -60q0 -18 7 -33.5t19 -27t28 -18.5t35 -7q18 0 34.5 7t28.5 18.5t19 27t7 33.5q0 35 -26 60
t-63 25z" />
    <glyph glyph-name="C" unicode="C" 
d="M568 354q3 -5 -12.5 -17.5t-35 -30t-36.5 -38t-17 -41.5q0 -20 17 -40.5t36.5 -38t35 -30t12.5 -17.5q-2 -5 -21 2.5t-44 15.5t-51 12t-44 -7q-18 -10 -28 -34.5t-15.5 -49.5t-8.5 -44.5t-9 -19.5t-9 19.5t-8.5 44.5t-14.5 49.5t-27 34.5t-44.5 6t-51.5 -12t-43.5 -15
t-21.5 -2t12 17.5t34.5 30t36.5 38t17 40.5q0 21 -17 41.5t-36.5 38t-34.5 30t-12 17.5q3 4 21.5 -2.5t43.5 -15t51.5 -12.5t44.5 6t27 35t14.5 50t8.5 44.5t9 19.5t9 -19.5t8.5 -44.5t15.5 -50t28 -35t44 -6t51 12.5t44 15t21 2.5z" />
    <glyph glyph-name="D" unicode="D" 
d="M347 -8q-51 0 -95.5 17.5t-78 47.5t-53 70t-19.5 86q0 38 13.5 72.5t38 63t58 48.5t72.5 30q-18 -16 -27 -38t-9 -47q0 -23 8 -42.5t21.5 -34t31.5 -23t39 -8.5t39.5 8.5t32 23t21.5 34t8 42.5q0 25 -9 47t-27 38q39 -10 72 -30t57.5 -48.5t38 -63t13.5 -72.5
q0 -46 -19.5 -86t-52.5 -70t-78 -47.5t-96 -17.5z" />
    <glyph glyph-name="E" unicode="E" 
d="M504 126q-23 0 -47.5 12t-47.5 28q17 -21 29 -46.5t12 -47.5q0 -23 -8 -42.5t-22 -33.5t-32.5 -22.5t-39.5 -8.5t-39.5 8.5t-32.5 22.5t-22 33.5t-8 42.5q0 22 11.5 46.5t28.5 47.5q-23 -17 -48 -28.5t-48 -11.5q-22 0 -41 8t-33.5 22t-22.5 32t-8 39t8 40t22.5 33
t33.5 22t41 8q23 0 48 -12t48 -29q-17 23 -29.5 48t-12.5 48q0 22 8 41t22 33t33 22.5t40 8.5t40 -8.5t33 -22.5t22 -33t8 -41q0 -23 -12.5 -48t-29.5 -48q22 17 47.5 29.5t48.5 12.5q22 0 41.5 -8t33.5 -22t22.5 -33t8.5 -40t-8.5 -39.5t-22.5 -32.5t-33.5 -22t-41.5 -8z
" />
    <glyph glyph-name="F" unicode="F" 
d="M166 415h55l17 -15v-135l-17 -15h-55l-16 15v135zM482 415h57l14 -15v-135l-14 -15h-57l-15 15v135zM271 440h57l15 -15v-156l-15 -16h-57l-15 16v156zM377 440h56l15 -15v-156l-15 -16h-56l-15 16v156zM166 227h181l15 -15v-49l-15 -14h-46l-26 -27v-45l-16 -15h-93
l-16 15v135zM404 227h135l14 -15v-135l-14 -15h-68l-27 -27v-38h-185v38h16l26 27v45l15 15h46l25 27v63z" />
    <glyph glyph-name="G" unicode="G" 
d="M428 496q8 -13 32 -42.5t50 -70t48.5 -90t27.5 -102.5q-1 -24 -12.5 -43.5t-29.5 -35t-40.5 -27t-46.5 -19.5q-55 -19 -126 -29q1 -15 4 -30q2 -13 4.5 -26.5t7.5 -23.5q-8 -2 -18.5 -3t-21.5 1h-9t-7 1q-4 0 -7 1q-1 -1 -5 13t-9 31q-6 20 -13 46q-45 6 -80 24
q-15 8 -29 19.5t-25 27t-17 36.5t-4 48q4 43 25.5 80.5t52.5 69t68.5 56t72.5 43t63.5 29.5t43.5 16zM426 286q-29 -2 -54.5 -12.5t-42.5 -21.5q4 9 6 16.5t6 15.5q15 10 35 22.5t35 17.5q15 6 29 7.5t25 1.5h17.5t6.5 3q1 1 -2.5 5.5t-11.5 8.5t-22 7t-34 1q-15 0 -32 -9
t-31 -20q19 45 31 69t5 28q-4 3 -12 -3.5t-18.5 -19.5t-22 -32t-22.5 -42q-6 11 -15 19t-23 10q-29 8 -37 4t-8 -13q2 -8 14.5 -10t27.5 -10q8 -4 14.5 -15.5t11.5 -22.5q-1 -9 -4 -18t-6 -19q-6 8 -16 14.5t-24 10.5q-30 9 -50 1t-20 -16t17 -9t45 -6q14 -2 24 -13t16 -22
q-7 -32 -7 -62q-10 13 -27 25t-40 14q-21 2 -32.5 0.5t-16.5 -4.5t-5 -7.5t1 -7.5q1 -2 7 -4t14.5 -4l17 -4t14.5 -4q22 -9 39.5 -25.5t27.5 -30.5q4 -40 13 -57.5t17 -15.5q7 0 2 16t-5 51q14 14 42 34t65 28q25 4 41.5 4t27 -1.5t15.5 -2.5t8 1q2 3 -1 8t-13 10.5t-28 9.5
t-47 4q-39 0 -66.5 -15.5t-40.5 -27.5q2 12 3.5 24t5.5 27q11 7 25.5 16.5t30.5 17t31 13t28 5.5q34 -2 56 -4.5t24 2.5q0 3 -4 9.5t-14 13t-26.5 11.5t-40.5 5z" />
    <glyph glyph-name="H" unicode="H" 
d="M389 266l-54 -66h-239l156 192h-143l54 66h239l-156 -192h143zM582 64l-54 -67h-188l111 134l-93 1l54 65h187l-110 -133h93z" />
    <glyph glyph-name="I" unicode="I" 
d="M494 294l107 -66l-107 -66l-108 66zM474 127v-132l-107 66v132zM329 61l-108 -66v132l107 66zM202 162l-108 66l108 66l107 -66zM367 396l107 64l1 -130l-108 -67v133zM221 330v132l107 -66v-133z" />
    <glyph glyph-name="K" unicode="K" 
d="M522 328q27 -45 27 -102t-27 -102l76 -77q6 -5 5 -10.5t-6 -10.5l-50 -50q-5 -5 -10.5 -6.5t-11.5 4.5l-74 75q-47 -30 -104 -30q-29 0 -55 8t-49 22l-74 -75q-5 -6 -11 -4.5t-11 6.5l-50 50q-4 5 -5.5 10.5t4.5 10.5l75 77q-25 47 -25 102q0 54 25 102l-79 80
q-6 6 -4.5 11t5.5 10l50 50q12 12 23 2l77 -77q46 29 104 29t104 -29l78 77q6 6 11.5 4.5t10.5 -6.5l50 -50q4 -5 5.5 -10t-4.5 -11zM505 244q-4 31 -17.5 57.5t-34.5 46t-48 30.5t-58 11q-30 0 -57.5 -11t-48.5 -30.5t-35 -46t-17 -57.5h76q6 30 28.5 49.5t53.5 19.5
q30 0 53 -19.5t31 -49.5h74zM347 276q-20 0 -34.5 -14.5t-14.5 -35.5q0 -20 14.5 -35t34.5 -15t34.5 15t14.5 35q0 21 -14.5 35.5t-34.5 14.5zM431 207q-8 -29 -31 -48.5t-53 -19.5q-31 0 -53.5 19.5t-28.5 48.5h-76q3 -30 17 -56.5t35 -45.5t48.5 -30t57.5 -11q31 0 58 11
t48 30t34.5 45.5t17.5 56.5h-74z" />
    <glyph glyph-name="L" unicode="L" 
d="M391 523q0 -1 -2.5 -11.5t-8 -27t-12 -37t-13.5 -41.5q-17 -50 -39 -113q62 18 111 32q21 6 41 11.5t35.5 10t25.5 7t11 1.5q1 0 -9.5 -19t-27.5 -49t-39 -68t-45.5 -78t-46 -78t-40.5 -67.5t-29 -47.5t-11 -17q-1 1 5 23.5t15 55.5t20 72t20 72l15 55l6 22
q-67 -23 -121 -41q-23 -8 -45 -15t-39.5 -12.5t-28.5 -8.5l-11 -3q-1 1 18.5 29t48.5 70t63.5 90t63.5 89.5t49 68t20 25.5z" />
    <glyph glyph-name="M" unicode="M" 
d="M454 276l-107 -185l-107 185h214zM251 421l34 -60h-85l-45 -79l42 -73h-69l-43 76l80 136h86v0zM567 209h-70l42 75l-45 78h-84l34 59h87l79 -136l-43 -76v0zM225 42l36 61l41 -75h91l42 75l35 -61l-43 -74h-158l-44 74v0z" />
    <glyph glyph-name="N" unicode="N" horiz-adv-x="694" 
d="M293 323q2 0 15 -10.5t33 -28t44.5 -39.5t50.5 -45q60 -55 135 -123q-13 -27 -36 -47q-20 -17 -52 -31.5t-81 -14.5q-51 0 -102.5 24.5t-92.5 64t-66.5 89t-25.5 99.5q0 38 11.5 71t33.5 57t55 37.5t75 13.5q59 0 101.5 -18t69 -40t38.5 -41t11 -20q-2 0 -14.5 10.5
t-34.5 23t-51.5 23.5t-65.5 11q-48 0 -78.5 -29t-30.5 -75q0 -37 15 -62t33 -42q21 -19 48 -32q-13 48 -23 87q-4 16 -7.5 31.5t-6 28t-3 20t1.5 7.5zM396 130l50 -11l-64 54z" />
    <glyph glyph-name="O" unicode="O" 
d="M348 448q47 0 88.5 -15t72.5 -41t49 -60.5t18 -74.5q0 -44 -19.5 -81.5t-55.5 -63.5q-5 -4 1 -14t6 -24q0 -8 -3.5 -19t-10 -22t-16 -18.5t-22.5 -7.5q-14 0 -24 6.5t-17 14.5q-8 10 -14 22q-7 -12 -15 -22q-8 -8 -17.5 -14.5t-20.5 -6.5q-12 0 -21 6.5t-16 14.5
q-8 10 -14 22q-6 -12 -15 -22q-8 -8 -18 -14.5t-24 -6.5t-23.5 8.5t-16 19.5t-9.5 22t-3 16q0 6 2.5 11.5t5 10.5t4 9t-1.5 6q-38 26 -58 64.5t-20 82.5q0 40 18 74.5t48.5 60.5t72 41t89.5 15zM347 371q-32 0 -59.5 -9t-47.5 -25t-32 -37t-12 -45t12 -44.5t32 -36
t47.5 -24.5t59.5 -9t60 9t48.5 24.5t32.5 36t12 44.5t-12 45t-32.5 37t-48.5 25t-60 9z" />
    <glyph glyph-name="P" unicode="P" 
d="M352 27q-34 0 -64 8t-55.5 21.5t-46.5 31t-38 35.5q-40 42 -68 97q28 54 68 96q17 18 38 35t46.5 30.5t55.5 22t64 8.5t63.5 -8.5t55 -22t47 -30.5t38.5 -35q40 -42 68 -96q-28 -55 -68 -97q-17 -18 -38.5 -35.5t-47 -31t-55 -21.5t-63.5 -8zM350 296q13 -5 20.5 -16
t7.5 -25q0 -19 -13.5 -31.5t-33.5 -12.5q-26 0 -39 19q4 -22 20 -36t38 -14q24 0 41.5 17.5t17.5 40.5q0 24 -17.5 41t-41.5 17zM433 347q26 -20 40 -48t14 -61q0 -29 -10.5 -53.5t-29 -43.5t-43.5 -29.5t-54 -10.5t-54 10.5t-43.5 29.5t-29.5 43.5t-11 53.5q0 32 13.5 60.5
t36.5 48.5q-32 -15 -55.5 -37t-39.5 -42q-18 -24 -31 -48q22 -40 54 -72q27 -27 67.5 -49.5t94.5 -22.5t94 22.5t67 49.5q32 32 54 72q-15 25 -34 49q-17 20 -42 42t-58 36z" />
    <glyph glyph-name="Q" unicode="Q" 
d="M514 475q11 0 17 -6.5t6 -16.5v-390q0 -35 -23.5 -58.5t-58.5 -23.5h-274q-9 0 -16 6t-7 17v449q0 10 7 16.5t16 6.5h333zM238 436q-11 0 -17 -7t-6 -17v-163q0 -10 6 -16.5t17 -6.5h222q10 0 16.5 6.5t6.5 16.5v163q0 10 -6.5 17t-16.5 7h-222zM406 108
q-13 0 -22.5 -9.5t-9.5 -21.5q0 -13 9.5 -22.5t22.5 -9.5t22 9.5t9 22.5q0 12 -9 21.5t-22 9.5zM315 135h-42v45h-37v-45h-40v-36h40v-44h37v44h42v36zM478 162q-12 0 -21.5 -9.5t-9.5 -22.5q0 -14 9.5 -22.5t21.5 -8.5q13 0 22.5 8.5t9.5 22.5q0 13 -9.5 22.5t-22.5 9.5z
" />
    <glyph glyph-name="R" unicode="R" 
d="M621 174q-7 -43 -22 -74.5t-34.5 -54t-40 -37.5t-37.5 -25q-25 -14 -57 -27.5t-76 -13.5q-45 0 -94.5 18.5t-92.5 49.5q-18 13 -32.5 33t-24.5 38.5t-15.5 32.5t-4.5 14q3 2 11.5 -5.5t29.5 -21.5q17 -10 26 -15.5t23 -3.5q1 2 -6.5 11t-18.5 23.5t-22 33t-16 38.5
q-10 35 -3 63.5t20 49t26.5 33t16.5 14.5q-15 -33 -14 -56.5t11.5 -41.5t26.5 -32t33 -29q5 0 1 7t-10 19t-11 29t-1 37.5t19.5 45t50.5 50.5q27 20 38.5 37.5t13 31.5t-3.5 25t-11.5 19t-12 13.5t-3.5 8.5q25 0 47 -14t39 -35t29 -46t17 -46q11 -38 12 -71.5t-5 -65.5
q9 1 27.5 3.5t38 11t37 25.5t24.5 46q13 -24 16.5 -46t0 -41t-12.5 -35t-21 -29q-27 -31 -71 -54q25 -1 50 4q21 5 45 17t44 38zM382 78q2 30 -5 43.5t-30 27.5q-13 8 -9.5 17.5t12.5 18.5t17 15t3 8q-17 0 -36.5 -7t-34 -19t-19 -26.5t7.5 -28.5q19 -24 20 -42.5t-20 -38.5
q-3 1 -1.5 8t-1 14.5t-14 14.5t-41.5 8q17 -8 23.5 -16.5t6 -16t-5 -14.5t-10.5 -11q-8 -7 -9.5 -15t1.5 -16t8 -14.5t11 -10.5q14 -9 39.5 -18t60.5 -9q32 0 54.5 10t31.5 17q13 11 11 23.5t-16 38.5q-12 22 -10 36t9.5 22t16 12.5t10.5 8.5h-16.5t-20 -3.5t-22 -12
t-21.5 -24.5z" />
    <glyph glyph-name="S" unicode="S" 
d="M475 173l-135 -50l-50 -135l-51 135l-134 50l134 51l51 134l50 -134zM562 338l-80 -30l-31 -81l-30 81l-81 30l81 31l30 79l30 -79z" />
    <glyph glyph-name="T" unicode="T" 
d="M406 482q7 -12 26.5 -40.5t41 -68t39.5 -87.5t22 -100q-2 -46 -32.5 -74.5t-68.5 -44.5q-44 -19 -99 -28q0 -13 1 -25q1 -11 3 -22.5t7 -21.5q-8 -1 -15 -0.5t-19 0.5q-12 1 -23 7q-6 3 -11 6q-1 -1 -2.5 9t-3.5 22q-3 14 -5 33q-37 5 -65 23q-12 7 -23.5 18.5t-20.5 27
t-14 36t-4 47.5q3 42 21 78t44 66t56 54t58.5 41.5t51.5 28.5t35 15zM301 28q3 -2 3 4.5v17.5v25.5t2 28.5q25 26 45.5 37.5t36.5 15t28.5 3.5t22.5 3q23 -3 27 -0.5t-5.5 6t-28 6.5t-41 1.5t-45 -9.5t-38.5 -25q0 15 3.5 30.5t5.5 26.5q26 29 50 39.5t44.5 11.5t37 -3
t26.5 -4q10 -1 -1.5 7t-35 13t-54.5 2t-61 -25q0 6 1 13.5t3 13.5l4 14q29 30 55 37.5t43.5 6.5t25.5 -4t1 5q-6 8 -24 10.5t-37.5 1t-35.5 -7.5t-19 -15q5 23 14.5 44t15.5 41q5 17 1.5 15t-11.5 -16t-19 -37.5t-21 -48.5q-17 16 -35.5 20.5t-31 4t-15 -3.5t11.5 -3
q16 -2 27 -8.5t17.5 -15t9 -15.5t2.5 -10q-1 -7 -1.5 -11t-1 -7t-1 -7.5t-1.5 -12.5q-17 17 -40.5 20.5t-41 0.5t-22.5 -7.5t15 -2.5q16 2 30 -5.5t25 -15.5q12 -11 23 -23l-2 -20q-1 -8 -2.5 -17t-2.5 -17q-22 13 -41.5 18t-32.5 4.5t-18 -4t2 -5.5q5 -2 13.5 -2.5t20 -5
t25.5 -16t31 -35.5q-1 -12 0.5 -26t4.5 -26t6.5 -20.5t6.5 -10.5z" />
    <glyph glyph-name="U" unicode="U" 
d="M555 228q-14 -23 -32.5 -45.5t-37.5 -41.5q15 -23 19 -45q6 -29 -3.5 -54.5t-30.5 -44t-52.5 -29.5t-70.5 -11q-38 0 -69.5 11t-52.5 29.5t-30 44t-3 54.5q3 21 19 45q-20 19 -38.5 41.5t-32.5 45.5q-20 31 -25 65t-3 63q2 33 11 65q27 -9 53 -25q23 -14 48 -36.5
t45 -56.5q12 -20 19.5 -44.5t9.5 -49.5q13 5 25 6t24 1q13 0 25.5 -1t23.5 -6q2 25 9.5 49.5t19.5 44.5q20 34 45 56.5t48 36.5q26 16 53 25q9 -32 11 -65q2 -29 -3 -63t-24 -65z" />
    <glyph glyph-name="V" unicode="V" 
d="M244 427h170l81 -242h-108l56 -185l-273 288h120l-46 139v0z" />
    <glyph glyph-name="W" unicode="W" 
d="M439 429q50 6 76 7q11 0 18.5 -0.5t6.5 -3.5t-11.5 -8t-35.5 -13q-15 -3 -31.5 -12.5t-30.5 -23t-23.5 -29.5t-9.5 -34q3 -39 23.5 -64t43 -46t40.5 -43t17 -56q0 -28 -14.5 -50.5t-39.5 -38t-60 -23.5t-75 -8t-81 14.5t-74.5 39.5t-54.5 58.5t-20 70.5q4 41 21 74.5
t41.5 59.5t54.5 46t60 34q71 33 159 49zM301 76q-11 4 -24.5 7.5t-27 3.5t-24.5 -3.5t-16 -12.5q-3 -8 2.5 -16.5t15 -16t20 -14t18.5 -9.5q11 -6 26 -10t29 -5t25.5 2t16.5 11q5 7 0 16t-15 17.5t-23 16.5t-23 13z" />
    <glyph glyph-name="X" unicode="X" horiz-adv-x="0" 
d="M347 297q29 0 49.5 -20.5t20.5 -49.5t-20.5 -49.5t-49.5 -20.5t-49.5 20.5t-20.5 49.5t20.5 49.5t49.5 20.5z" />
    <glyph glyph-name="Y" unicode="Y" 
d="M351 135q-3 -3 -7 0q0 1 -3 21.5t-8.5 47.5t-14 53.5t-21.5 39.5q-22 24 -40 37.5t-30.5 20t-19 9t-6.5 5.5q0 6 12 3.5t28.5 -4.5t35 -1t32.5 15q13 13 19 29t9 29.5t4.5 23t6.5 9.5q4 0 6 -9.5t5 -23t8.5 -29.5t18.5 -29q14 -14 33 -15.5t36 1t28.5 5t11.5 -3.5
q0 -3 -6.5 -5.5t-19 -9t-30 -20t-39.5 -37.5q-13 -13 -21.5 -39.5t-14.5 -53.5t-9 -47.5t-4 -21.5zM188 424q1 -2 -6 -12t-15.5 -27t-16 -40.5t-7.5 -50.5q0 -43 12.5 -67t31 -40t41 -29.5t43.5 -34.5q25 -25 38 -52t19 -50q7 -27 7 -53q-8 0 -29.5 3.5t-48.5 14t-56 28.5
t-53.5 47t-40 69.5t-15.5 96.5q0 59 14 98t31.5 61.5t33 31t17.5 6.5zM509 424q1 2 16.5 -6.5t33 -31t32 -61.5t14.5 -98q0 -56 -16 -96.5t-40.5 -69.5t-54 -47t-56.5 -28.5t-48.5 -14t-29.5 -3.5q1 26 8 53q6 23 19 50t38 52q21 21 43.5 34.5t41.5 29.5t31 40t12 67
q0 27 -7.5 50.5t-16 40.5t-15.5 27t-5 12z" />
    <glyph glyph-name="Z" unicode="Z" horiz-adv-x="0" 
d="M347 575q72 0 135.5 -27t110.5 -74.5t74.5 -111t27.5 -135.5t-27.5 -135t-74.5 -110.5t-110.5 -74.5t-135.5 -27t-135 27t-110.5 74.5t-74.5 110.5t-27 135t27 135.5t74.5 111t110.5 74.5t135 27z" />
    <glyph glyph-name="a" unicode="a" 
d="M174 338h81l-94 -254h-80l93 254v0zM340 405h157l117 -321h-393l119 321v0z" />
    <glyph glyph-name="b" unicode="b" 
d="M350 408h12.5t12.5 -2q20 24 31.5 37.5t18 20.5t9.5 8.5t7 1.5q11 0 6.5 -17t-38.5 -57q14 -3 27.5 -8.5t25.5 -11.5q-15 -15 -26.5 -26t-24 -17.5t-27 -10t-34.5 -3.5q-21 0 -35.5 3t-26 10t-22.5 17t-26 25q26 16 52 22q-35 39 -40 56t4 17q5 0 9 -1.5t10.5 -8t17 -20
t30.5 -37.5q7 2 13 2h14zM332 185q0 -13 -2 -36.5t-9.5 -49.5t-22.5 -52t-42 -44q-53 26 -86.5 77.5t-33.5 114.5q0 47 18.5 87.5t50.5 70.5q20 -29 47.5 -44t56.5 -23q14 -33 18.5 -54t4.5 -47zM367 185q0 26 5 47t19 54q30 8 57.5 23.5t46.5 43.5q33 -30 51 -70.5
t18 -87.5q0 -63 -33.5 -114.5t-86.5 -77.5q-27 18 -42 44t-23 52t-10 49.5t-2 36.5z" />
    <glyph glyph-name="c" unicode="c" 
d="M347 466q49 0 93 -19t76 -51t51 -75.5t19 -92.5t-19 -92t-51 -75.5t-76 -51t-93 -18.5t-92.5 18.5t-75.5 51t-51 75.5t-19 92t19 92.5t51 75.5t75.5 51t92.5 19zM347 375q-30 0 -57 -11.5t-47 -31.5t-31.5 -47t-11.5 -57t11.5 -57t31.5 -47t47 -31.5t57 -11.5
q31 0 57.5 11.5t46.5 31.5t31.5 47t11.5 57t-11.5 57t-31.5 47t-46.5 31.5t-57.5 11.5z" />
    <glyph glyph-name="d" unicode="d" 
d="M347 -1q-47 0 -88.5 18t-72.5 49t-49 72.5t-18 88.5q0 48 18 89.5t49 72t72.5 48.5t88.5 18q48 0 89.5 -18t72.5 -48.5t49 -72t18 -89.5q0 -47 -18 -88.5t-49 -72.5t-72.5 -49t-89.5 -18zM348 417q-36 0 -66 -12q27 -10 50.5 -27.5t41 -41t27 -51t9.5 -58.5t-9.5 -59
t-27 -51.5t-41 -41t-50.5 -26.5q33 -12 66 -12q40 0 74.5 15t60.5 40.5t41 60.5t15 74t-15 74t-41 60.5t-60.5 40.5t-74.5 15z" />
    <glyph glyph-name="e" unicode="e" 
d="M412 284q-12 13 -28.5 21t-36.5 8q-32 0 -55.5 -21t-28.5 -52l-123 -35q-1 5 -1 11v12q0 43 16.5 81t44.5 66t66 44.5t81 16.5q71 0 121 -38q63 -20 97 -30t50 -15q18 -5 22 -6zM283 173q24 -30 64 -30q32 0 56 20.5t29 51.5l123 35q1 -5 1 -11v-11q0 -44 -16.5 -82
t-44.5 -66t-66.5 -44.5t-81.5 -16.5q-34 0 -64 10.5t-56 28.5l-169 52z" />
    <glyph glyph-name="f" unicode="f" 
d="M171 292v-223q0 -7 -8.5 -7.5t-22.5 -0.5q-17 45 -26 69t-14 35l-6 15l48 118q16 0 22.5 0.5t6.5 -6.5zM552 389v-298q0 -9 -2 -15q-2 -5 -6.5 -9.5t-15.5 -4.5h-313q-7 0 -9 5q-1 2 -1 5v317q0 6 10 9t22 3t22 -3t10 -9v-108q0 -4 5 -6t11 -2t11 2t5 6v108q0 6 9.5 9
t21.5 3t21.5 -3t9.5 -9v-108q0 -4 5 -6t11.5 -2t11.5 2t5 6v108q0 6 9.5 9.5t21.5 3.5t21.5 -3t9.5 -10v-108q0 -4 5 -6t11 -2t11 2t5 6v108q0 6 9.5 9t21.5 3.5t21.5 -2.5t9.5 -10z" />
    <glyph glyph-name="g" unicode="g" 
d="M478 35q-32 -31 -66 -44t-67 -13t-63 9t-52 23l41 58l168 16l-2 11l-137 16l59 86l108 3l1 17l-87 13l85 125l-10 11l-109 -112l-24 85l-13 -3l10 -110l-72 -71l-37 129l-14 2l12 -170l-51 -51q-16 22 -30.5 54t-18 69t8.5 76.5t48 75.5q22 21 49 37t57 27t60.5 17.5
t59.5 10.5q68 9 140 6q16 -81 17 -157q0 -32 -2.5 -66.5t-10.5 -67t-22 -61.5t-36 -51z" />
    <glyph glyph-name="h" unicode="h" 
d="M346 452q46 0 86 -17.5t70 -47.5t47.5 -70t17.5 -86q0 -47 -17 -87t-48 -71q0 -16 9.5 -24.5t18.5 -14t13 -8t-8 -6.5q-26 -11 -49.5 -15t-43.5 -5t-37 0.5t-30 1.5q-46 0 -91 16t-80.5 46t-57.5 72t-22 95q0 46 17.5 86t47.5 70t70.5 47.5t86.5 17.5zM232 301
q-12 -6 -16.5 -21t-1.5 -31t13.5 -28t28.5 -12q14 0 24 7.5t16 16.5q7 11 12 24q-9 -1 -18 0q-8 1 -17.5 2.5t-17.5 6.5q-13 8 -15.5 19t-7.5 16zM459 301q-4 -5 -6.5 -16t-16.5 -19q-8 -5 -16.5 -6.5t-16.5 -2.5q-9 -1 -18 0q4 -13 11 -24q6 -9 15.5 -16.5t23.5 -7.5
q18 0 28.5 12t13.5 28t-1.5 31t-16.5 21z" />
    <glyph glyph-name="i" unicode="i" 
d="M504 293l113 -66l-113 -66l-115 66zM483 126v-133l-114 67v132zM328 60l-115 -67v133l115 66v-132zM193 161l-115 66l115 66l113 -66zM369 394l114 66v-132l-114 -66v132zM213 328v132l115 -66v-132z" />
    <glyph glyph-name="k" unicode="k" 
d="M481 398l-64 -179l-220 -139l-69 24l-17 115l172 178zM583 223l-75 -87l-49 73l70 189zM475 103l-74 -84l-145 46l173 108z" />
    <glyph glyph-name="l" unicode="l" 
d="M244 427h176l81 -245h-111l62 -195l-286 303h124l-46 137v0z" />
    <glyph glyph-name="m" unicode="m" 
d="M225 18l-122 210l122 211h245l121 -211l-121 -210h-245zM348 343q-24 0 -45.5 -9t-37 -24.5t-24.5 -37t-9 -45.5t9 -45t24.5 -36.5t37 -24.5t45.5 -9t45 9t36.5 24.5t24.5 36.5t9 45t-9 45.5t-24.5 37t-36.5 24.5t-45 9z" />
    <glyph glyph-name="n" unicode="n" 
d="M360 489q13 0 13 -34q0 -13 -4 -23.5t-7 -18t-2.5 -11.5t9.5 -4q27 0 61.5 -12.5t65 -38t51.5 -64.5t21 -91q0 -49 -17.5 -87t-42 -63.5t-50.5 -39t-42 -13.5q-33 0 -54.5 12.5t-33.5 28.5t-16 30t-2 16q1 1 8 -1.5t36 -2.5q12 0 28 7t31 20.5t25 32.5t10 42q0 22 -6 37
t-15 25t-18.5 17t-15.5 12q0 6 -2.5 15t-7 16.5t-9.5 13t-10 5.5q-4 0 -4 -0.5t1.5 -2t3 -5t1.5 -10.5q0 -24 -14 -35t-28 -18q-66 -16 -104 -25.5t-57.5 -14t-25 -5t-7.5 0.5q-4 2 -1 10.5t8 18.5q5 11 14 26l19 38q8 14 15 27.5t11 15.5q14 10 44.5 24.5t60.5 44.5
q26 26 37.5 42.5t15 25.5t3.5 12.5t3 3.5zM261 328q-5 -3 -10 -7t-10.5 -8.5t-10.5 -9.5q-9 -9 -13.5 -17t-6.5 -14q-3 -7 -3 -13q7 1 15 4q16 5 29 18q9 9 11.5 17t2.5 15q-1 8 -4 15zM304 185q-11 -11 -19 -26q-7 -13 -12.5 -30.5t-5.5 -37.5q0 -27 8.5 -46t17.5 -32
t14 -19t-2 -6q-23 0 -50 15t-50 38t-38.5 51t-15.5 54q12 3 37.5 9t51.5 13q30 8 64 17z" />
    <glyph glyph-name="o" unicode="o" 
d="M347 443q48 0 89.5 -15t72 -41t48.5 -61t18 -75q0 -44 -19.5 -81t-55.5 -63q-5 -5 0.5 -14.5t5.5 -23.5q0 -8 -3 -19t-9.5 -22t-16 -18.5t-22.5 -7.5q-14 0 -24 6.5t-17 14.5q-8 10 -14 22q-7 -12 -15 -22q-7 -8 -17 -14.5t-21 -6.5t-20 6.5t-16 14.5q-8 10 -14 22
q-6 -12 -15 -22q-8 -8 -18.5 -14.5t-23.5 -6.5q-14 0 -23.5 8.5t-16 19.5t-9.5 22t-3 16q0 11 7 22t2 14q-38 28 -58 65.5t-20 81.5q0 40 18 75t49 61t72.5 41t88.5 15zM347 365q-32 0 -59.5 -9t-48.5 -25t-33 -36.5t-12 -44.5t12 -45t33 -36.5t48.5 -24.5t59.5 -9
q31 0 59 9t48 24.5t32 36.5t12 45t-12 44.5t-32 36.5t-48 25t-59 9z" />
    <glyph glyph-name="p" unicode="p" 
d="M358 12q-31 0 -69.5 11.5t-72 37t-56 66t-22.5 97.5q0 29 10 67t35 71.5t67.5 57t107.5 23.5q52 0 90 -19.5t62.5 -48t36.5 -61.5t12 -61q0 -25 -10 -52.5t-30.5 -51t-50 -38.5t-68.5 -15t-65.5 10.5t-43 28t-23.5 39.5t-7 46q0 4 3.5 20t13.5 33.5t29 31.5t51 14
q22 0 38 -6.5t26 -17t14.5 -23.5t4.5 -26q0 -26 -17.5 -43t-40.5 -17q-16 0 -25.5 6t-13.5 13t-3.5 13t3.5 6q6 1 11 -5t20 -6q16 0 21.5 11t5.5 19q0 4 -1 10t-5 11.5t-12.5 9.5t-23.5 4t-25 -5.5t-16 -14t-8.5 -17.5t-2.5 -15q0 -7 2 -20t9.5 -25.5t22.5 -21.5t40 -9
q20 0 38.5 5.5t32 17.5t21.5 30.5t8 43.5q0 16 -7 37t-21.5 39.5t-37 31t-53.5 12.5q-35 0 -63.5 -13t-48.5 -34t-31 -48t-11 -55q0 -42 17.5 -74t43.5 -53.5t56.5 -32t56.5 -10.5q20 0 38.5 3.5t32 7t19.5 4.5t2 -4q-5 -6 -13 -13.5t-22 -15t-34 -12.5t-48 -5z" />
    <glyph glyph-name="q" unicode="q" 
d="M514 475q11 0 17 -6.5t6 -16.5v-390q0 -35 -23.5 -58.5t-58.5 -23.5h-274q-9 0 -16 6t-7 17v449q0 10 7 16.5t16 6.5h333zM238 436q-11 0 -17 -7t-6 -17v-163q0 -10 6 -16.5t17 -6.5h222q10 0 16.5 6.5t6.5 16.5v163q0 10 -6.5 17t-16.5 7h-222zM406 108
q-13 0 -22.5 -9.5t-9.5 -21.5q0 -13 9.5 -22.5t22.5 -9.5t22 9.5t9 22.5q0 12 -9 21.5t-22 9.5zM315 135h-42v45h-37v-45h-40v-36h40v-44h37v44h42v36zM478 162q-12 0 -21.5 -9.5t-9.5 -22.5q0 -14 9.5 -22.5t21.5 -8.5q13 0 22.5 8.5t9.5 22.5q0 13 -9.5 22.5t-22.5 9.5z
" />
    <glyph glyph-name="r" unicode="r" 
d="M347 487q6 -3 16 -12.5t19.5 -22.5t16.5 -29.5t7 -33.5q0 -21 -8 -29t-17.5 -13t-17.5 -14t-8 -32q0 -26 16 -42t42 -16q12 0 23 5.5t19.5 14t13 18t4.5 17.5t-3 16t-6 14t-4 9t4 2q5 -2 19.5 -10.5t29.5 -25.5t27 -43.5t12 -62.5q0 -29 -7.5 -51t-19.5 -38.5t-27 -28
t-31 -18.5q-37 -18 -84 -22q11 11 21 24q8 11 14.5 25t6.5 30t-7 29t-18 22t-24 14t-25 5t-25.5 -5.5t-25 -15t-19 -23.5t-7.5 -30q0 -46 28.5 -75t91.5 -29q31 0 53 5.5t35.5 11t19 9.5t4.5 1q-1 -4 -8.5 -16t-25.5 -25.5t-47.5 -24t-74.5 -10.5q-41 -1 -78.5 13.5
t-66 41.5t-46 66.5t-17.5 87.5q0 24 5.5 46.5t12.5 38.5t12 22.5t5 -1.5q-1 -27 1.5 -48.5t6.5 -36t8 -20.5t7 -1t1 20t-0.5 35.5t9 46t28.5 51.5q16 19 34.5 36t34.5 32t26.5 29.5t10.5 29.5q0 9 -2 17.5t-2.5 14t0.5 7t7 -1.5z" />
    <glyph glyph-name="s" unicode="s" 
d="M473 257q-11 42 -45 70t-81 28q-46 0 -80 -28t-44 -70h-112q5 44 25.5 82.5t52 67t72 44.5t86.5 16t87 -16t73 -44.5t52.5 -67t25.5 -82.5h-112zM347 297q29 0 49.5 -20t20.5 -49t-20.5 -49.5t-49.5 -20.5t-49 20.5t-20 49.5t20 49t49 20zM585 200q-5 -45 -25.5 -83.5
t-52.5 -67t-73 -44.5t-87 -16t-86.5 16t-72 44.5t-52 67t-25.5 83.5h112q10 -44 44 -72t80 -28q47 0 81 28t45 72h112z" />
    <glyph glyph-name="u" unicode="u" horiz-adv-x="694" 
d="M674 344q-5 -7 -12.5 -14.5t-17.5 -13.5q-20 -15 -48.5 -26.5t-63 -19.5t-73 -13t-78.5 -6q1 0 -3 0t-10 -0.5t-12 -0.5h-9h-9t-11.5 0.5t-9 0.5t-2.5 0q-41 1 -80 6t-73.5 13t-63 19.5t-48.5 26.5q-20 13 -28 28q4 11 6 17t7 17v1q0 1 0.5 1t0.5 1q13 -21 45 -38
q44 -21 111 -36t139 -17h16h17q71 2 138.5 17t111.5 36q15 9 27 18t18 20v-3h1q5 -11 7 -17t7 -17zM680 132h2q-6 -17 -10 -28.5t-11 -25.5q-2 -4 -4 -7.5t-4 -8.5q-17 -12 -38.5 -23t-47.5 -20h-3h-1q-49 -17 -104 -25.5t-112 -8.5q-56 0 -111 8.5t-105 25.5h-3
q-26 9 -47.5 20t-40.5 23q-2 5 -3 8.5t-3 7.5q-6 14 -11 25.5t-10 28.5q0 -1 1 -1l1 -1q29 -37 79 -60q51 -22 114.5 -33t126.5 -13h25q63 2 126 13t113 33q50 23 80 60q2 2 3 2h-2zM695 230q-1 0 -1 -1v-2q-1 -7 -7 -16q-14 -28 -46 -49t-75.5 -35.5t-95.5 -22t-106 -8.5
h-17h-18q-53 1 -104.5 8.5t-95 22t-75.5 35.5t-46 49q-6 8 -8 16v3v1v13t1 14q2 14 4.5 27.5t6.5 27.5q0 5 3 13q-1 -22 12.5 -41t37 -34t55.5 -26.5t70 -19.5q34 -7 69.5 -11t72.5 -4h15h15q36 0 72 4t70 11q38 8 70.5 19.5t56 26.5t37 34t12.5 41q0 -4 1 -7l2 -6
q7 -26 10 -55q1 -7 1.5 -14t0.5 -13v-1z" />
    <glyph glyph-name="v" unicode="v" 
d="M274 362q20 0 36 -1.5t26 -2.5q3 0 17.5 -1.5t36 -1t47 3t51 11t47.5 23.5t36 39q-8 -101 -77 -153.5t-185 -47.5q29 -10 62.5 -12t66 2.5t62 15t51.5 25.5q-3 -10 -12.5 -30t-32 -38.5t-62 -30.5t-102.5 -6q0 -5 16 -10.5t40.5 -8t55 0t59.5 15.5q0 -3 -10 -16
t-29.5 -26.5t-48 -23t-65.5 -4.5q5 -9 15 -12t19.5 -4t16 -1t5.5 -1q-25 -29 -63 -46t-79 -17q-38 0 -70 14t-56 38.5t-37.5 57t-13.5 69.5t13.5 70t37.5 57.5t56 38.5t70 14z" />
    <glyph glyph-name="w" unicode="w" horiz-adv-x="694" 
d="M347 463q45 -59 80 -116q15 -24 29.5 -50.5t26 -52t18.5 -49.5t7 -44q0 -41 -15.5 -70.5t-38.5 -49.5t-49.5 -29.5t-49.5 -9.5t-52 7t-54.5 25t-43 48.5t-17.5 78.5q0 45 24.5 98.5t54.5 101.5q35 55 80 112zM271 201q-13 -24 -17 -48q-3 -20 3 -44t32 -44
q22 -13 40.5 -17.5t33 -3t26 7.5t19.5 14q19 19 29 53q-14 -12 -32 -19q-15 -6 -35.5 -7t-44.5 10q-25 11 -36.5 28t-15.5 33q-4 18 -2 37z" />
    <glyph glyph-name="x" unicode="x" 
d="M585 199q-5 -45 -25.5 -83.5t-52.5 -67t-73 -44.5t-87 -16t-87 16t-72.5 44.5t-52 67t-26.5 83.5h114q9 -43 43.5 -71.5t80.5 -28.5t80.5 28.5t45.5 71.5h112z" />
    <glyph glyph-name="y" unicode="y" 
d="M356 481l71 -106h17l61 18l9 -8l-17 -62v-16l105 -71v-17l-105 -70v-18l17 -61l-9 -9l-61 17h-17l-71 -105h-17l-70 105h-18l-61 -17l-9 9l17 61l-1 16l-104 72v17l105 71v16l-17 62l9 8l61 -18h18l70 106h17zM347 340q-4 -13 -10 -26q-5 -11 -13 -24t-18 -23
q-10 -11 -22 -18t-23 -12q-13 -6 -27 -10q14 -4 27 -10q11 -5 23 -13t22 -18q20 -21 31 -42q6 -11 10 -22q5 12 11 23q5 10 12 20.5t17 20.5t23.5 18t24.5 13q13 6 27 10q-14 4 -27 10q-11 5 -24.5 12t-23.5 18q-10 10 -17 23t-12 24q-6 13 -11 26z" />
    <glyph glyph-name="z" unicode="z" horiz-adv-x="0" 
d="M473 257q-11 42 -45.5 71t-80.5 29t-80.5 -29t-43.5 -71h-114q6 44 26.5 82.5t52.5 67t72.5 44.5t86.5 16t87 -16t73 -44.5t52.5 -67t25.5 -82.5h-112v0z" />
  </font>
</defs>
</svg>
